Форум о телесериалах

Информация о пользователе

Привет, Гость! Войдите или зарегистрируйтесь.


Вы здесь » Форум о телесериалах » Скачать телесериалы » Привилегия любить / El privilegio de amar (на украинском языке)Нарезка


Привилегия любить / El privilegio de amar (на украинском языке)Нарезка

Сообщений 1 страница 3 из 3

1

http://www.10pix.ru/img1/4677/3381785.jpg
Год выпуска: 1998
Страна: Мексика
Жанр: теленовелла
Продолжительность: 42(нарезка) эпизода из 155
Перевод: Украинский язык
Русские субтитры: нет
Режиссер: Мигел Корсега , Моника Мигел
В ролях:
Кристина — Адела Нориега (Adela Noriega)
Виктор Мануел — Рене Стриклер (René Strickler)
Лусиана Дувал — Елена Рохо (Helena Rojo)
Андрес — Андрес Гарсия (Andrés García)
Хуан де ла Крус — Сесар Евора (César Évora)
Николас Обрегон — Енрике Роча (Enrique Rocha)
Тамара — Синтия Клитбо (Cynthia Klitbo)
Лоренса Торес — Сабин Мусие (Sabine Moussier)
Описание: Лусиана Дюваль - преуспевающая хозяйка дома моды, решает найти свою дочку, которую много лет назад оставила у дверей богатого дома, так как тогда была не в состоянии прокормить только что родившуюся малышку, а человек, от которого она забеременела, Хуан де ла Крус, бросил её. Но Кристина, дочь Лусианы, попадает в монастырь, где и вырастает. Заветная мечта Кристины и двух её подружек в монастыре - это стать моделью. И вот Кристина попадает в дом мод, хозяйкой которого является Лусиана. Здесь она встречает Викторя Мануэля - пасынка Лусианы и сына её мужа Андреса Дюваль. Вскоре между Кристиной и Виктором Мануэлем возникает крепкая любовь. Но Виктор Мануэль помолвлен с Тамарой, которая утверждает, что беременна от него. Тогда Лусиана решает разлучить Кристину с Виктором, чего и добивается. Теперь Виктор Мануэль женат на Тамаре, а Кристина всем сердцем ненавидит Лусиану. Но ведь она не знает, что Лусиана - её мать. Вскоре Кристина обнаруживает, что ждёт ребёнка...
MI:

Format : AVI
Format/Info : Audio Video Interleave
File size : 210 MiB
Duration : 24mn 35s
Overall bit rate : 1 191 Kbps
Writing library : VirtualDub-MPEG2 build 24417/release
Video
ID : 0
Format : MPEG-4 Visual
Format profile : Simple@L3
Format settings, BVOP : No
Format settings, QPel : No
Format settings, GMC : No warppoints
Format settings, Matrix : Default (H.263)
Codec ID : XVID
Codec ID/Hint : XviD
Duration : 24mn 35s
Bit rate : 1 054 Kbps
Width : 544 pixels
Height : 408 pixels
Display aspect ratio : 4:3
Frame rate : 25.000 fps
Color space : YUV
Chroma subsampling : 4:2:0
Bit depth : 8 bits
Scan type : Progressive
Bits/(Pixel*Frame) : 0.190
Stream size : 185 MiB (88%)
Writing library : XviD 1.2.1 (UTC 2008-12-04)
Audio
ID : 1
Format : AC-3
Format/Info : Audio Coding 3
Mode extension : CM (complete main)
Codec ID : 2000
Duration : 24mn 35s
Bit rate mode : Constant
Bit rate : 128 Kbps
Channel(s) : 2 channels
Channel positions : Front: L R
Sampling rate : 48.0 KHz
Stream size : 22.5 MiB (11%)
Alignment : Aligned on interleaves
Interleave, duration : 40 ms (1.00 video frame)
Interleave, preload duration : 512 ms

Качество: VHSRip
Формат: AVI
Видео кодек: XviD
Аудио кодек: AC3
Видео: 544х408 (1.33:1) 25 fps XviD MPEG-4 1054 kbps
Аудио: АС-3 ACM 48.000 kHz 128.00 kbps avg

0

2

Скриншоты:
http://www.10pix.ru/img1/763271/3381571.png
http://www.10pix.ru/img1/891848/3381615.png
http://www.10pix.ru/img1/2675/3381703.png
http://www.10pix.ru/img1/2788/3381719.png
http://www.10pix.ru/img1/3764/3381736.png
http://www.10pix.ru/img1/4276/3381748.png
http://www.10pix.ru/img1/4516/3381761.png
http://www.10pix.ru/img1/1569/3381773.png
http://www.10pix.ru/img1/606051/3381782.png
http://www.10pix.ru/img1/636792/3381792.png
http://www.10pix.ru/img1/677361/3381800.png
http://www.10pix.ru/img1/1666/3381808.png

0

3

http://s009.radikal.ru/i310/1104/29/0b73219f5201.png
[download]
1 серия
http://fileplanet.com.ua/uixr36y0z6u2/1.avi
2 серия
http://fileplanet.com.ua/x992pvjykoib/2.avi
3 серия
http://fileplanet.com.ua/bkrsauws8alc/3.avi
4 серия
http://fileplanet.com.ua/uof39ym0h2w2/4.avi
5 серия
http://fileplanet.com.ua/f2t4m134wt0w/5.avi
6 серия
http://fileplanet.com.ua/bt5jde7y4zwy/6.avi
7 серия
http://fileplanet.com.ua/zwtf20ipqurz/7.avi
8 серия
http://fileplanet.com.ua/bdrc3w6juv63/8.avi
9 серия
http://fileplanet.com.ua/be3jx6qzx3y1/9.avi
10серия
http://fileplanet.com.ua/meuarvza9c0j/10.avi
11серия
http://fileplanet.com.ua/as1711uwcgs1/11.avi
12серия
http://fileplanet.com.ua/lekydeypf8fl/12.avi
13серия
http://fileplanet.com.ua/2ear70xghhfh/13.avi
14серия
http://fileplanet.com.ua/9owacryjghfw/14.avi
15серия
http://fileplanet.com.ua/znjlou6u806g/15.avi
16серия
http://fileplanet.com.ua/pcw3z2pdlv17/16.avi
17серия
http://fileplanet.com.ua/yjqo6y817q62/17.avi
18серия
http://fileplanet.com.ua/0jwn3vskw7gf/18.avi
19 серия
http://fileplanet.com.ua/xyqb2wezgufk/19.avi
20серия
http://fileplanet.com.ua/2cykdaw4hxp0/20.avi
21серия
http://fileplanet.com.ua/qgeldxnzyl02/21.avi
22серия
http://fileplanet.com.ua/yj3uv5rqod8l/22.avi
23серия
http://fileplanet.com.ua/watu6qam5eh2/23.avi
24серия
http://fileplanet.com.ua/cq6v1np43tpc/24.avi
25серия
http://fileplanet.com.ua/u9m3axelyq6j/25.avi
26серия
http://fileplanet.com.ua/d7vr7zx40m88/26.avi
27серия
http://fileplanet.com.ua/lupiol6dzma9/27.avi
28серия
http://fileplanet.com.ua/ovmjafps08zu/28.avi
29серия
http://fileplanet.com.ua/anr5u6n76q02/29.avi
30серия
http://fileplanet.com.ua/lri9hrbcqe5a/30.avi
31серия
http://fileplanet.com.ua/p6yhocw9cw6l/31.avi
32серия
http://fileplanet.com.ua/uahf8owvhkrd/32.avi
33серия
http://fileplanet.com.ua/wqb1cw4imdej/33.avi
34серия
http://fileplanet.com.ua/3tudb1oobjp4/34.avi
35серия
http://fileplanet.com.ua/t2z0vika2yvz/35.avi
36серия
http://fileplanet.com.ua/iter318bo09s/36.avi
37серия
http://fileplanet.com.ua/yscy261bioq1/37.avi
38серия
http://fileplanet.com.ua/8gt2xm2nx5rq/38.avi
39серия
http://fileplanet.com.ua/slpk0lmcqekj/39.avi
40серия
http://fileplanet.com.ua/gt3n7f7xqx6u/40.avi
41серия
http://fileplanet.com.ua/u1hubgrr6t6l/41.avi
42серия fin
http://fileplanet.com.ua/59jtco00ms7m/42fin.avi

0


Вы здесь » Форум о телесериалах » Скачать телесериалы » Привилегия любить / El privilegio de amar (на украинском языке)Нарезка


© 10bb.ru бесплатно песни слушать онлайн